找回密碼
 註冊
|註冊|登錄
尊貴會員無限下載附件認識好友、聊天,分享生活趣事搞笑、娛樂、精彩的影片讓你看
大亨小傳大亨小傳大亨小傳魔球賽德克穿著prad西游
花漾大亨小傳大亨小傳雷神星際大戰幕光之城決殺令

休閒聊天興趣交流學術文化旅遊交流飲食交流家庭事務PC GAME連線遊戲
TV GAME熱門線上其他線上感情感性寵物交流家族門派動漫交流貼圖分享
BL/GL音樂世界影視娛樂女性頻道潮流資訊BT下載區GB下載區下載分享
短片電腦資訊數碼產品手機交流交易廣場網站事務長篇小說體育運動
時事經濟上班一族成人話題博彩娛樂
BT電影下載區BT動漫下載區BT電視連續劇下載區BT綜藝節目下載區BT體育運動下載區BT軟件下載區BT遊戲下載區BT音樂下載區
BT H遊戲下載區BT H動漫下載區BT日韓成人電影BT歐美成人電影BT求檔&問題區
查看: 2868|回復: 0

[88c0]維多利亞壹號(720p.x264.AC3國粵雙語) 關閉[複製鏈接]

帖子
0
積分
0 點
潛水值
30 米
發表於 2010-12-9 11:24 AM|顯示全部樓層
如果發覺自己無法使用一些功能或出現問題,請按重新整理一次,並待所有網頁內容完全載入後5秒才進行操作。
本帖最後由 sally02192002 於 2010-12-13 09:19 PM 編輯




[譯  名] 維多利亞一號/維多利亞壹號
[片  名] Dream Home
[年  代] 2010
[國  家] 中國香港
[類  別]   恐怖
[語  言] 普通話/粵語
[字  幕] 簡體中文
[IMDB評分]  6.6/10 (228 votes)
[IMDB鏈接]  
下載: 訪客無法瀏覽下載點,請先 註冊登入會員

[驗證全碼]   88c0b126b6439aed582ce8a6e2dcb171c9cc3ec4
[文件格式] X264 + AC3
[視頻尺寸] 1280 x 720
[文件大小] 1CD
[片  長] 95 Mins
[導  演] 彭浩翔 Ho-Cheung Pang
[主  演] 何超儀 Josie Ho
      陳奕迅 Eason Chan
      周俊偉 Lawrence Chou
      曾國祥 Kwok Cheung Tsang
      單立文 Lap-Man Sin
      王青 Ching Wong
      盧海鵬 Hoi-Pang Lo
      麥浚龍 Juno Mak
      葉璇 Michelle Ye
      徐少強 Norman Chu
      鮑起靜 Hee Ching Paw
      宋娟 Juan Song
      周楚楚 Chu Chu Zhou
      駱應鈞 Felix Lok
      陳偉雄 Wai Hung Chan
簡  介 
  小時候,鄭麗嫦一家居住在狹小的唐樓里,她的夢想便是快點長大,掙多點錢,給家人買所好房子。可是舊樓拆去,建了私人屋苑–維多利亞壹號。她一直希望能在那里買一個單位。她拼命工作,干著多份兼職,甚至挺而走險,偷賣公司資料,幾經艱苦才儲了首期,付了訂金。一家人也高興不已。
  但在2007年,香港樓市瘋狂颷升,業主不惜向鄭撻訂,封盤。
  鄭苦苦哀求,也不得要領,她向男友借錢,卻被拒絕。她這才意識到,無論怎努力賺錢,也趕不上香港的樓市。
  最終,她精神崩潰,當上連環殺手,向她看不過眼的人報復……

      Dream.Home.2010.BluRay.720p.x264.AC3-WOFEI.mkv
      Format : Matroska
      File size : 2.34 GiB
      Duration : 1h 34mn
      Overall bit rate : 3 537 Kbps
      Encoded date : UTC 2010-11-17 14:15:53
      Writing application : mkvmerge v3.4.0 ('Rapunzel') 編譯于 May 15 2010 09:38:20
      Writing library : libebml v0.8.0 + libmatroska v0.9.0
   Video #1
      ID : 1
      Format : AVC
      Format/Info : Advanced Video Codec
      Format profile : High@L4.1
      Format settings, CABAC : Yes
      Format settings, ReFrames : 6 frames
      Muxing mode : Container profile=Unknown@4.1
      Codec ID : V_MPEG4/ISO/AVC
      Duration : 1h 34mn
      Bit rate : 2 571 Kbps
      Nominal bit rate : 2 642 Kbps
      Width : 1 280 pixels
      Height : 720 pixels
      Display aspect ratio : 16:9
      Frame rate : 24.000 fps
      Resolution : 8 bits
      Colorimetry : 4:2:0
      Scan type : Progressive
      Bits/(Pixel*Frame) : 0.116
      Stream size : 1.70 GiB (73%)
      Writing library : x264 core 98 r1649 c54c47d
      Encoding settings : cabac=1 / ref=6 / deblock=1:-3:-3 / analyse=0x3:0x113 / me=umh / subme=7 / psy=1 / psy_rd=1.00:0.00 / mixed_ref=1 / me_range=20 / chroma_me=1 / trellis=2 / 8x8dct=1 / cqm=0 / deadzone=21,11 / fast_pskip=1 / chroma_qp_offset=-2 / threads=6 / sliced_threads=0 / nr=0 / decimate=1 / interlaced=0 / constrained_intra=0 / bframes=8 / b_pyramid=0 / b_adapt=1 / b_bias=0 / direct=3 / weightb=1 / weightp=2 / keyint=250 / keyint_min=25 / scenecut=40 / intra_refresh=0 / rc_lookahead=40 / rc=2pass / mbtree=1 / bitrate=2642 / ratetol=1.0 / qcomp=0.60 / qpmin=10 / qpmax=51 / qpstep=4 / cplxblur=20.0 / qblur=0.5 / ip_ratio=1.40 / aq=1:1.00
      Language : English
   Audio #2
      ID : 2
      Format : AC-3
      Format/Info : Audio Coding 3
      Codec ID : A_AC3
      Duration : 1h 34mn
      Bit rate mode : Constant
      Bit rate : 448 Kbps
      Channel(s) : 6 channels
      Channel positions : Front: L C R, Surround: L R, LFE
      Sampling rate : 48.0 KHz
      Stream size : 304 MiB (13%)
      Title : 國語
   Audio #3
      ID : 3
      Format : AC-3
      Format/Info : Audio Coding 3
      Codec ID : A_AC3
      Duration : 1h 34mn
      Bit rate mode : Constant
      Bit rate : 448 Kbps
      Channel(s) : 6 channels
      Channel positions : Front: L C R, Surround: L R, LFE
      Sampling rate : 48.0 KHz
      Stream size : 304 MiB (13%)
      Title : 粵語
   Text #4
      ID : 4
      Format : UTF-8
      Codec ID : S_TEXT/UTF8
      Codec ID/Info : UTF-8 Plain Text
      Title : 中文

...
瀏覽完整內容,請先 註冊登入會員
附件: 你需要登錄才可以下載或查看附件。沒有帳號?註冊
若瀏覽伊莉的時侯發生問題或不正常情況,請使用Internet Explorer(I.E)。

使用道具檢舉

您需要登錄後才可以回帖 登錄 | 註冊

Powered by Discuz!

© Comsenz Inc.


重要聲明:本討論區是以即時上載留言的方式運作,對所有留言的真實性、完整性及立場等,不負任何法律責任。而一切留言之言論只代表留言者個人意見,並非本網站之立場,用戶不應信賴內容,並應自行判斷內容之真實性。於有關情形下,用戶應尋求專業意見(如涉及醫療、法律或投資等問題)。 由於本討論區受到「即時上載留言」運作方式所規限,故不能完全監察所有留言,若讀者發現有留言出現問題,請聯絡我們。有權刪除任何留言及拒絕任何人士上載留言,同時亦有不刪除留言的權利。切勿撰寫粗言穢語、誹謗、渲染色情暴力或人身攻擊的言論,敬請自律。本網站保留一切法律權利。
回頂部